[MagicStar] 她们的犯罪 彼女たちの犯罪 EP09.5 [WEBDL] [1080p] [HULU]【生】【附日字】

动漫搬运工 9月前 31


HD 1080p from HULU JAPAN.
alt text
alt text

General Unique ID                      : 44106403812489588356225752153192487705 (0x212E959A337655381D59007269E15B19) Complete name                  : Kanojotachi.no.Hanzai.EP09.5.1080p.HULU.WEB-DL.AAC2.0.H.264-MagicStar.mkv Format                         : Matroska Format version                 : Version 4 File size                      : 272 MiB Duration                       : 10 min 37 s Overall bit rate               : 3 587 kb/s Frame rate                     : 29.970 FPS Encoded date                   : 2023-09-16 02:49:48 UTC Writing application            : mkvmerge v50.0.0 ('Awakenings') 64-bit Writing library                : libebml v1.4.0 + libmatroska v1.6.2 Cover                          : Yes Attachments                    : cover.png  Video ID                             : 1 Format                         : AVC Format/Info                    : Advanced Video Codec Format profile                 : High@L4 Format settings                : CABAC / 4 Ref Frames Format settings, CABAC         : Yes Format settings, Reference fra : 4 frames Codec ID                       : V_MPEG4/ISO/AVC Duration                       : 10 min 37 s Bit rate                       : 3 330 kb/s Width                          : 1 920 pixels Height                         : 1 080 pixels Display aspect ratio           : 16:9 Frame rate mode                : Constant Frame rate                     : 29.970 (29970/1000) FPS Original frame rate            : 29.970 (30000/1001) FPS Color space                    : YUV Chroma subsampling             : 4:2:0 Bit depth                      : 8 bits Scan type                      : Progressive Bits/(Pixel*Frame)             : 0.054 Stream size                    : 253 MiB (93%) Default                        : Yes Forced                         : No Color range                    : Limited Color primaries                : BT.709 Transfer characteristics       : BT.709 Matrix coefficients            : BT.709  Audio ID                             : 2 Format                         : AAC LC Format/Info                    : Advanced Audio Codec Low Complexity Codec ID                       : A_AAC-2 Duration                       : 10 min 37 s Bit rate                       : 253 kb/s Channel(s)                     : 2 channels Channel layout                 : L R Sampling rate                  : 48.0 kHz Frame rate                     : 46.875 FPS (1024 SPF) Compression mode               : Lossy Stream size                    : 19.2 MiB (7%) Title                          : 日本語 [オリジナル] Language                       : Japanese Default                        : Yes Forced                         : No

下载地址:
番组表

最新动漫索引表

联盟成员

字幕组成员搜索表

动画库

动画库搜索表

更多往期

更多往期列表

最新回复 (0)
返回
发新帖
TAG

ヾ(・ω・`。)快来领券!

关注微信公众号