[MagicStar] 派对浪客孔明 パリピ孔明 EP02 [WEBDL] [1080p] [AMZN]【生】

动漫搬运工 9月前 37


HD 1080p from Prime Video.
Use CBR bitrate mode.


We are planning to upload all Prime Video Japan Dramas and Movies, we need your Support!


Support Us

Ali (Zhifubao / QR code): https://i.ibb.co/FWV2ggm/1660626347125.png
PayPalMe: https://www.paypal.com/paypalme/sakuragikenji
ETH (ERC20): 0xea3286E176099E8C9aBaf25A0edf231374C04E89
USDT (BTC / OMNI): 1Lemw6fu5vG3NdvWGxDxsPX7T7yUb3rNzu


alt text
alt text

General Unique ID                      : 222752039323738213292876345714247891491 (0xA7947B76178DE23F5EE39028795E7A23) Complete name                  : Paripi.Koumei.EP02.1080p.AMZN.WEB-DL.DDP2.0.H.264-MagicStar.mkv Format                         : Matroska Format version                 : Version 4 File size                      : 2.88 GiB Duration                       : 44 min 37 s Overall bit rate mode          : Constant Overall bit rate               : 9 253 kb/s Frame rate                     : 29.970 FPS Encoded date                   : 2023-09-28 02:00:43 UTC Writing application            : mkvmerge v50.0.0 ('Awakenings') 64-bit Writing library                : libebml v1.4.0 + libmatroska v1.6.2 Cover                          : Yes Attachments                    : cover.png  Video ID                             : 1 Format                         : AVC Format/Info                    : Advanced Video Codec Format profile                 : High@L4 Format settings                : CABAC / 4 Ref Frames Format settings, CABAC         : Yes Format settings, Reference fra : 4 frames Codec ID                       : V_MPEG4/ISO/AVC Duration                       : 44 min 37 s Bit rate mode                  : Constant Bit rate                       : 9 025 kb/s Nominal bit rate               : 10 000 kb/s Width                          : 1 920 pixels Height                         : 1 080 pixels Display aspect ratio           : 16:9 Frame rate mode                : Constant Frame rate                     : 29.970 (29970/1000) FPS Original frame rate            : 29.970 (30000/1001) FPS Color space                    : YUV Chroma subsampling             : 4:2:0 Bit depth                      : 8 bits Scan type                      : Progressive Bits/(Pixel*Frame)             : 0.145 Stream size                    : 2.81 GiB (98%) Default                        : Yes Forced                         : No Color range                    : Limited Color primaries                : BT.709 Transfer characteristics       : BT.709 Matrix coefficients            : BT.709  Audio ID                             : 2 Format                         : E-AC-3 Format/Info                    : Enhanced AC-3 Commercial name                : Dolby Digital Plus Codec ID                       : A_EAC3 Duration                       : 44 min 37 s Bit rate mode                  : Constant Bit rate                       : 224 kb/s Channel(s)                     : 2 channels Channel layout                 : L R Sampling rate                  : 48.0 kHz Frame rate                     : 31.250 FPS (1536 SPF) Compression mode               : Lossy Stream size                    : 71.5 MiB (2%) Title                          : 日本語 [オリジナル] Language                       : Japanese Service kind                   : Complete Main Default                        : Yes Forced                         : No

下载地址:
番组表

最新动漫索引表

联盟成员

字幕组成员搜索表

动画库

动画库搜索表

更多往期

更多往期列表

最新回复 (0)
返回
发新帖
TAG

ヾ(・ω・`。)快来领券!

关注微信公众号