[MagicStar] 擅长捉弄的高木同学 からかい上手の高木さん EP05 [WEBDL] [1080p] [Netflix] [V0]【生】【附官方日英繁中字幕】

动漫搬运工 1月前 25


HD 1080p from Netflix.
Japanese, English and Chinese subtitles added.


Support Us

Ali (Zhifubao / QR code): https://i.ibb.co/FWV2ggm/1660626347125.png
PayPalMe: https://www.paypal.com/paypalme/sakuragikenji
ETH (ERC20): 0xea3286E176099E8C9aBaf25A0edf231374C04E89
USDT (BTC / OMNI): 1Lemw6fu5vG3NdvWGxDxsPX7T7yUb3rNzu


alt text
alt text

General Unique ID                      : 249196120336178855428957259101030774023 (0xBB796D510E2E6C21DC676F7B7882F507) Complete name                  : Karakai.Jouzu.no.Takagi.san.EP05.1080p.NF.WEB-DL.DDP2.0.H.264.V0-MagicStar.mkv Format                         : Matroska Format version                 : Version 4 File size                      : 974 MiB Duration                       : 22 min 24 s Overall bit rate mode          : Constant Overall bit rate               : 6 078 kb/s Frame rate                     : 23.976 FPS Encoded date                   : 2024-04-15 17:43:44 UTC Writing application            : mkvmerge v50.0.0 ('Awakenings') 64-bit Writing library                : libebml v1.4.0 + libmatroska v1.6.2 Cover                          : Yes Attachments                    : cover.png  Video ID                             : 1 Format                         : AVC Format/Info                    : Advanced Video Codec Format profile                 : High@L4 Format settings                : CABAC / 1 Ref Frames Format settings, CABAC         : Yes Format settings, Reference fra : 1 frame Format settings, GOP           : M=1, N=24 Codec ID                       : V_MPEG4/ISO/AVC Duration                       : 22 min 24 s Bit rate mode                  : Constant Bit rate                       : 5 983 kb/s Width                          : 1 920 pixels Height                         : 1 080 pixels Display aspect ratio           : 16:9 Frame rate mode                : Constant Frame rate                     : 23.976 (24000/1001) FPS Color space                    : YUV Chroma subsampling             : 4:2:0 Bit depth                      : 8 bits Scan type                      : Progressive Bits/(Pixel*Frame)             : 0.120 Stream size                    : 953 MiB (98%) Default                        : Yes Forced                         : No Color range                    : Limited Color primaries                : BT.709 Transfer characteristics       : BT.709 Matrix coefficients            : BT.709  Audio ID                             : 2 Format                         : E-AC-3 Format/Info                    : Enhanced AC-3 Commercial name                : Dolby Digital Plus Codec ID                       : A_EAC3 Duration                       : 22 min 24 s Bit rate mode                  : Constant Bit rate                       : 128 kb/s Channel(s)                     : 2 channels Channel layout                 : L R Sampling rate                  : 48.0 kHz Frame rate                     : 31.250 FPS (1536 SPF) Compression mode               : Lossy Stream size                    : 20.5 MiB (2%) Title                          : 日本語 [オリジナル] Language                       : Japanese Service kind                   : Complete Main Default                        : Yes Forced                         : No

下载地址:
番组表

最新动漫索引表

联盟成员

字幕组成员搜索表

动画库

动画库搜索表

更多往期

更多往期列表

pFDScB6.jpg
最新回复 (0)
返回
发新帖

ヾ(・ω・`。)快来领券!

关注微信公众号