[MagicStar] 特利迦奥特曼 ウルトラマントリガー 特别总集篇03 [WEBDL] [1080p]【生】【Youtube配信版】【附英字】

动漫搬运工 1月前 30


HD 1080p from Youtube official channel.
English subtitles added.
alt text
alt text

General Unique ID                      : 124443487812879679877161615001629125960 (0x5D9EF1A71E6D0C3CB30E8D0C356E6D48) Complete name                  : [MagicStar] Ultraman Trigger Special Episode 03 [WEBDL] [1080p] [YOUTUBE].mkv Format                         : Matroska Format version                 : Version 4 File size                      : 661 MiB Duration                       : 30 min 9 s Overall bit rate               : 3 064 kb/s Encoded date                   : UTC 2021-12-05 01:20:42 Writing application            : mkvmerge v50.0.0 ('Awakenings') 64-bit Writing library                : libebml v1.4.0 + libmatroska v1.6.2 Cover                          : Yes Attachments                    : cover.jpg  Video ID                             : 1 Format                         : AVC Format/Info                    : Advanced Video Codec Format profile                 : [email protected] Format settings                : CABAC / 3 Ref Frames Format settings, CABAC         : Yes Format settings, Reference fra : 3 frames Codec ID                       : V_MPEG4/ISO/AVC Duration                       : 30 min 9 s Bit rate                       : 2 933 kb/s Width                          : 1 920 pixels Height                         : 1 080 pixels Display aspect ratio           : 16:9 Frame rate mode                : Constant Frame rate                     : 29.970 (29970/1000) FPS Color space                    : YUV Chroma subsampling             : 4:2:0 Bit depth                      : 8 bits Scan type                      : Progressive Bits/(Pixel*Frame)             : 0.047 Stream size                    : 633 MiB (96%) Writing library                : x264 core 155 r2901 7d0ff22 Default                        : Yes Forced                         : No Color range                    : Limited Color primaries                : BT.709 Transfer characteristics       : BT.709 Matrix coefficients            : BT.709  Audio ID                             : 2 Format                         : AAC LC Format/Info                    : Advanced Audio Codec Low Complexity Codec ID                       : A_AAC-2 Duration                       : 30 min 9 s Bit rate                       : 128 kb/s Channel(s)                     : 2 channels Channel layout                 : L R Sampling rate                  : 44.1 kHz Frame rate                     : 43.066 FPS (1024 SPF) Compression mode               : Lossy Stream size                    : 27.6 MiB (4%) Language                       : Japanese Default                        : Yes Forced                         : No

下载地址:
最新回复 (0)
返回
发新帖