【2021日影】[MagicStar] 打算一直单身吗? ずっと独身でいるつもり? [WEBDL] [1080p] [AMZN]【生】【附日字】

动漫搬运工 4月前 50


HD 1080p from Prime Video.
Japanese subtitles added.
alt text
alt text

General Unique ID                      : 217724575326869996318265134043791294144 (0xA3CC3A594CA823A62C8B9932DBC2FEC0) Complete name                  : Zutto.Dokushin.de.Iru.Tsumori.2021.1080p.AMZN.WEB-DL.DDP5.1.H.264-MagicStar.mkv Format                         : Matroska Format version                 : Version 4 File size                      : 3.08 GiB Duration                       : 1 h 33 min Overall bit rate               : 4 701 kb/s Encoded date                   : UTC 2022-01-07 04:53:24 Writing application            : mkvmerge v50.0.0 ('Awakenings') 64-bit Writing library                : libebml v1.4.0 + libmatroska v1.6.2 Cover                          : Yes Attachments                    : cover.png  Video ID                             : 1 Format                         : AVC Format/Info                    : Advanced Video Codec Format profile                 : [email protected] Format settings                : CABAC / 4 Ref Frames Format settings, CABAC         : Yes Format settings, Reference fra : 4 frames Codec ID                       : V_MPEG4/ISO/AVC Duration                       : 1 h 33 min Bit rate                       : 4 058 kb/s Width                          : 1 920 pixels Height                         : 1 080 pixels Display aspect ratio           : 16:9 Frame rate mode                : Constant Frame rate                     : 23.976 (24000/1001) FPS Color space                    : YUV Chroma subsampling             : 4:2:0 Bit depth                      : 8 bits Scan type                      : Progressive Bits/(Pixel*Frame)             : 0.082 Stream size                    : 2.66 GiB (86%) Default                        : Yes Forced                         : No Color range                    : Limited Color primaries                : BT.709 Transfer characteristics       : BT.709 Matrix coefficients            : BT.709  Audio ID                             : 2 Format                         : E-AC-3 Format/Info                    : Enhanced AC-3 Commercial name                : Dolby Digital Plus Codec ID                       : A_EAC3 Duration                       : 1 h 33 min Bit rate mode                  : Constant Bit rate                       : 640 kb/s Channel(s)                     : 6 channels Channel layout                 : L R C LFE Ls Rs Sampling rate                  : 48.0 kHz Frame rate                     : 31.250 FPS (1536 SPF) Compression mode               : Lossy Stream size                    : 430 MiB (14%) Language                       : Japanese Service kind                   : Complete Main Default                        : Yes Forced                         : No

下载地址:
最新回复 (0)
返回
发新帖