[MagicStar] 新娘未满ESCASPE 花嫁未満エスケープ EP08 [WEBDL] [1080p] [AMZN]【生】

动漫搬运工 1月前 16


HD 1080p from Prime Video.
Use CBR bitrate mode.
No japanese subtitles for now.
alt text
alt text

General Unique ID                      : 324685633582890818741224609842705706883 (0xF4442DAD2097856C0E2A408E893BAF83) Complete name                  : Hanayome.Miman.Escape.EP08.1080p.AMZN.WEB-DL.DDP2.0.H.264-MagicStar.mkv Format                         : Matroska Format version                 : Version 4 File size                      : 1.45 GiB Duration                       : 24 min 0 s Overall bit rate mode          : Constant Overall bit rate               : 8 641 kb/s Encoded date                   : UTC 2022-05-27 09:39:38 Writing application            : mkvmerge v50.0.0 ('Awakenings') 64-bit Writing library                : libebml v1.4.0 + libmatroska v1.6.2 Cover                          : Yes Attachments                    : cover.png  Video ID                             : 1 Format                         : AVC Format/Info                    : Advanced Video Codec Format profile                 : [email protected] Format settings                : CABAC / 4 Ref Frames Format settings, CABAC         : Yes Format settings, Reference fra : 4 frames Codec ID                       : V_MPEG4/ISO/AVC Duration                       : 23 min 59 s Bit rate mode                  : Constant Bit rate                       : 8 412 kb/s Nominal bit rate               : 10 000 kb/s Width                          : 1 920 pixels Height                         : 1 080 pixels Display aspect ratio           : 16:9 Frame rate mode                : Constant Frame rate                     : 23.976 (24000/1001) FPS Color space                    : YUV Chroma subsampling             : 4:2:0 Bit depth                      : 8 bits Scan type                      : Progressive Bits/(Pixel*Frame)             : 0.169 Stream size                    : 1.41 GiB (97%) Default                        : Yes Forced                         : No Color range                    : Limited Color primaries                : BT.709 Transfer characteristics       : BT.709 Matrix coefficients            : BT.709  Audio ID                             : 2 Format                         : E-AC-3 Format/Info                    : Enhanced AC-3 Commercial name                : Dolby Digital Plus Codec ID                       : A_EAC3 Duration                       : 24 min 0 s Bit rate mode                  : Constant Bit rate                       : 224 kb/s Channel(s)                     : 2 channels Channel layout                 : L R Sampling rate                  : 48.0 kHz Frame rate                     : 31.250 FPS (1536 SPF) Compression mode               : Lossy Stream size                    : 38.5 MiB (3%) Language                       : Japanese Service kind                   : Complete Main Default                        : Yes Forced                         : No

下载地址:
最新回复 (0)
返回
发新帖