[MagicStar] 异世界居酒屋 阿信 第二季 ~魔女与大主教篇~ 異世界居酒屋 のぶ Season2 ~魔女と大司教編~ EP01 [HDTV] [1080p]【生】

动漫搬运工 1月前 19


HD 1080p from WOWOW Prime.
alt text
alt text

General Unique ID                      : 190021752337761843751381660082953252584 (0x8EF4DBB8F93D8F7C975285CDED9BEEE8) Complete name                  : [MagicStar] Isekai Izakaya Nobu Season2 ~Majo to Daishikyou-hen~ EP01 [HDTV] [1080p].mkv Format                         : Matroska Format version                 : Version 2 File size                      : 1.08 GiB Duration                       : 25 min 0 s Overall bit rate               : 6 192 kb/s Encoded date                   : UTC 2022-05-27 22:56:41 Writing application            : mkvmerge v8.5.2 ('Crosses') 32bit Writing library                : libebml v1.3.3 + libmatroska v1.4.4  Video ID                             : 1 Format                         : AVC Format/Info                    : Advanced Video Codec Format profile                 : [email protected] Format settings                : CABAC / 4 Ref Frames Format settings, CABAC         : Yes Format settings, Reference fra : 4 frames Codec ID                       : V_MPEG4/ISO/AVC Duration                       : 24 min 59 s Bit rate                       : 5 866 kb/s Width                          : 1 920 pixels Height                         : 1 080 pixels Display aspect ratio           : 16:9 Frame rate mode                : Constant Frame rate                     : 29.970 (30000/1001) FPS Color space                    : YUV Chroma subsampling             : 4:2:0 Bit depth                      : 8 bits Scan type                      : Progressive Bits/(Pixel*Frame)             : 0.094 Stream size                    : 1.02 GiB (95%) Writing library                : x264 core 148 r2638 7599210 Encoding settings              : cabac=1 / ref=3 / deblock=1:0:0 / analyse=0x3:0x113 / me=umh / subme=8 / psy=1 / psy_rd=1.00:0.00 / mixed_ref=0 / me_range=16 / chroma_me=1 / trellis=2 / 8x8dct=1 / cqm=0 / deadzone=21,11 / fast_pskip=1 / chroma_qp_offset=-2 / threads=24 / lookahead_threads=4 / sliced_threads=0 / nr=0 / decimate=1 / interlaced=0 / bluray_compat=0 / constrained_intra=0 / bframes=3 / b_pyramid=2 / b_adapt=2 / b_bias=0 / direct=3 / weightb=1 / open_gop=0 / weightp=2 / keyint=300 / keyint_min=29 / scenecut=40 / intra_refresh=0 / rc_lookahead=40 / rc=crf / mbtree=1 / crf=18.0 / qcomp=0.60 / qpmin=0 / qpmax=69 / qpstep=4 / ip_ratio=1.40 / aq=1:1.00 Default                        : Yes Forced                         : No  Audio ID                             : 2 Format                         : AAC LC Format/Info                    : Advanced Audio Codec Low Complexity Codec ID                       : A_AAC-2 Duration                       : 25 min 0 s Bit rate                       : 324 kb/s Channel(s)                     : 2 channels Channel layout                 : L R Sampling rate                  : 48.0 kHz Frame rate                     : 46.875 FPS (1024 SPF) Compression mode               : Lossy Delay relative to video        : 9 ms Stream size                    : 57.9 MiB (5%) Language                       : Japanese Default                        : Yes Forced                         : No

下载地址:
最新回复 (0)
返回
发新帖